Subcategories

Thin Lizzy - UK Tour 75 (2008)

Posted By: popsakov
Thin Lizzy - UK Tour 75 (2008)

Thin Lizzy - UK Tour 75 (2008)
EAC Rip | FLAC (Img) + Cue + Log ~ 611 Mb | MP3 CBR320 ~ 187 Mb
Scans (JPG, 400 dpi) ~ 67 Mb | RAR 5% Recovery
Classic Rock, Hard Rock, Blues Rock | Major League Productions Ltd. #MLP16CD

UK Tour '75 is a live album by Irish rock band Thin Lizzy, recorded at the Derby College of Art and Technology in Derby, England on 21 November 1975 as part of the tour promoting the Fighting album. Released in 2008, UK Tour '75 was authorised by the surviving band members and the content was digitally remastered under their supervision. Some of the songs had not yet been released on Thin Lizzy studio albums, such as "Cowboy Song", dubbed "Derby Blues" on the night by lead singer Phil Lynott.
~ Wiki

Here is a slice of Thin Lizzy at their proverbial best touring the U.K. in 1975 in support of Fighting, the album released the year before they ripped the lid off it with Jailbreak. As such, this set reveals – albeit with a little less in terms of sound quality since this is clearly a radio broadcast – Lizzy as one of the greatest live bands in history. The recording was done officially, the release is questionable. Everything is audible with only the slightest sound deterioration here, (and the song selection is terrific from the early years); the performance is just on fire. "The Rocker" is here, as is a stunning rendition of "Cowboy Song," an overdriven "Me and the Boys," "Fighting My Way Back to You," and "The Wild One," to name the blasters. The midtempo selections include their amazing cover of Bob Seger's "Rosalie" (the songwriter should have quit performing it after Lizzy issued it on their album), and an electric blues rendition of "Still in Love with You." For those who worship at this particular rock altar and don't have this show, it's most definitely a necessity – especially since there are four never-before-released live cuts!
~ Thom Jurek, All Music
Thin Lizzy - UK Tour 75 (2008)


***************

Thin Lizzy - UK Tour 75 (2008)

Track List:

01. Fighting My Way Back [3:51]
02. It's Only Money [3:35]
03. Wild One [4:24]
04. For Those Who Love To Live [5:06]
05. Still In Love With You [9:23]
06. Showdown [5:32]
07. Suicide [5:08]
08. Rosalie [3:59]
09. The Rocker [3:56]
10. Sha La La [7:10]
11. Baby Drives Me Crazy [6:24]
12. Me And The Boys [6:44]
13. Cowboy Song (Derby Blues) [6:50]
14. Little Darling [3:14]
15. Sound Check Jam [2:47]

Exact Audio Copy V1.1 from 23. June 2015

EAC extraction logfile from 17. May 2017, 11:41

Thin Lizzy / UK Tour 75

Used drive : Optiarc DVD RW AD-7283S Adapter: 1 ID: 0

Read mode : Secure
Utilize accurate stream : Yes
Defeat audio cache : Yes
Make use of C2 pointers : No

Read offset correction : 48
Overread into Lead-In and Lead-Out : No
Fill up missing offset samples with silence : Yes
Delete leading and trailing silent blocks : No
Null samples used in CRC calculations : Yes
Used interface : Native Win32 interface for Win NT & 2000

Used output format : User Defined Encoder
Selected bitrate : 128 kBit/s
Quality : High
Add ID3 tag : No
Command line compressor : C:\Program Files (x86)\Exact Audio Copy\Flac\flac.exe
Additional command line options : -V -8 -T "Genre=%genre%" -T "Artist=%artist%" -T "Title=%title%" -T "Album=%albumtitle%" -T "Date=%year%" -T "Tracknumber=%tracknr%" -T "Comment=%comment%" %source%


TOC of the extracted CD

Track | Start | Length | Start sector | End sector
––––––––––––––––––––––––––––-
1 | 0:00.00 | 3:51.31 | 0 | 17355
2 | 3:51.31 | 3:34.45 | 17356 | 33450
3 | 7:26.01 | 4:24.34 | 33451 | 53284
4 | 11:50.35 | 5:05.73 | 53285 | 76232
5 | 16:56.33 | 9:22.44 | 76233 | 118426
6 | 26:19.02 | 5:32.29 | 118427 | 143355
7 | 31:51.31 | 5:07.53 | 143356 | 166433
8 | 36:59.09 | 3:59.25 | 166434 | 184383
9 | 40:58.34 | 3:55.51 | 184384 | 202059
10 | 44:54.10 | 7:09.48 | 202060 | 234282
11 | 52:03.58 | 6:24.31 | 234283 | 263113
12 | 58:28.14 | 6:43.67 | 263114 | 293405
13 | 65:12.06 | 6:49.53 | 293406 | 324133
14 | 72:01.59 | 3:13.54 | 324134 | 338662
15 | 75:15.38 | 2:47.00 | 338663 | 351187


Range status and errors

Selected range

Filename F:\alexbras\Thin Lizzy - 2008 - UK Tour 75 (EU Major League MLP16CD)\Thin Lizzy - UK Tour 75.wav

Peak level 99.9 %
Extraction speed 4.6 X
Range quality 99.9 %
Test CRC 30812828
Copy CRC 30812828
Copy OK

No errors occurred


AccurateRip summary

Track 1 accurately ripped (confidence 8) [076C1021] (AR v2)
Track 2 accurately ripped (confidence 8) [4CCD18A4] (AR v2)
Track 3 accurately ripped (confidence 8) [047E0473] (AR v2)
Track 4 accurately ripped (confidence 8) [B6EE8E23] (AR v2)
Track 5 accurately ripped (confidence 8) [39A50543] (AR v2)
Track 6 accurately ripped (confidence 8) [DAA443F8] (AR v2)
Track 7 accurately ripped (confidence 8) [1A72CA3C] (AR v2)
Track 8 accurately ripped (confidence 8) [FB453110] (AR v2)
Track 9 accurately ripped (confidence 8) [F373F056] (AR v2)
Track 10 accurately ripped (confidence 8) [FC79D4CD] (AR v2)
Track 11 accurately ripped (confidence 8) [5C6F7473] (AR v2)
Track 12 accurately ripped (confidence 8) [0F996488] (AR v2)
Track 13 accurately ripped (confidence 8) [3979B0A7] (AR v2)
Track 14 accurately ripped (confidence 8) [E6FB0A36] (AR v2)
Track 15 accurately ripped (confidence 8) [2DA76C4E] (AR v2)

All tracks accurately ripped

End of status report

==== Log checksum 157B8CD5F10F49E5E57E63840DA0FAF3ACAC4E2C53BE9C4322F052A10C61ECEC ====

foobar2000 1.2.6 / Dynamic Range Meter 1.1.1
log date: 2017-05-19 19:06:42

––––––––––––––––––––––––––––––––––––––––
Analyzed: Thin Lizzy / UK Tour 75
––––––––––––––––––––––––––––––––––––––––

DR Peak RMS Duration Track
––––––––––––––––––––––––––––––––––––––––
DR4 0.00 dB -5.23 dB 3:51 01-Fighting My Way Back
DR4 0.00 dB -4.53 dB 3:35 02-It's Only Money
DR4 0.00 dB -4.68 dB 4:24 03-Wild One
DR6 0.00 dB -7.86 dB 5:06 04-For Those Who Love To Live
DR5 0.00 dB -6.58 dB 9:23 05-Still In Love With You
DR6 0.00 dB -7.80 dB 5:32 06-Showdown
DR5 0.00 dB -5.72 dB 5:08 07-Suicide
DR4 0.00 dB -5.13 dB 3:59 08-Rosalie
DR5 -0.51 dB -6.50 dB 3:56 09-The Rocker
DR5 0.00 dB -5.63 dB 7:10 10-Sha La La
DR5 0.00 dB -6.60 dB 6:24 11-Baby Drives Me Crazy
DR5 0.00 dB -5.85 dB 6:44 12-Me And The Boys
DR5 0.00 dB -6.09 dB 6:50 13-Cowboy Song (Derby Blues)
DR5 0.00 dB -5.69 dB 3:14 14-Little Darling
DR4 0.00 dB -5.53 dB 2:47 15-Sound Check Jam
––––––––––––––––––––––––––––––––––––––––

Number of tracks: 15
Official DR value: DR5

Samplerate: 44100 Hz
Channels: 2
Bits per sample: 16
Bitrate: 1042 kbps
Codec: FLAC
================================================================================

[CUETools log; Date: 19.05.2017 19:06:42; Version: 2.1.5]
[CTDB TOCID: wN0LPLh_b6CKfE5HenbqWtY.Hgo-] found.
Track | CTDB Status
1 | (16/16) Accurately ripped
2 | (16/16) Accurately ripped
3 | (16/16) Accurately ripped
4 | (16/16) Accurately ripped
5 | (16/16) Accurately ripped
6 | (16/16) Accurately ripped
7 | (16/16) Accurately ripped
8 | (16/16) Accurately ripped
9 | (16/16) Accurately ripped
10 | (16/16) Accurately ripped
11 | (16/16) Accurately ripped
12 | (16/16) Accurately ripped
13 | (16/16) Accurately ripped
14 | (16/16) Accurately ripped
15 | (16/16) Accurately ripped
[AccurateRip ID: 002ab89e-01ebf39d-b7124a0f] found.
Track [ CRC | V2 ] Status
01 [6cb6f744|076c1021] (10+08/20) Accurately ripped
02 [6cd77e3e|4ccd18a4] (11+08/21) Accurately ripped
03 [08128e75|047e0473] (11+08/21) Accurately ripped
04 [1f15fd1d|b6ee8e23] (11+08/21) Accurately ripped
05 [fba97f13|39a50543] (10+08/20) Accurately ripped
06 [fefcf342|daa443f8] (10+08/20) Accurately ripped
07 [fb6dbbb9|1a72ca3c] (11+08/21) Accurately ripped
08 [96580eb5|fb453110] (11+08/21) Accurately ripped
09 [a2cf4be4|f373f056] (11+08/21) Accurately ripped
10 [10d4b114|fc79d4cd] (11+08/21) Accurately ripped
11 [b37ae03b|5c6f7473] (11+08/21) Accurately ripped
12 [470c4735|0f996488] (11+08/21) Accurately ripped
13 [c198a5ad|3979b0a7] (11+08/21) Accurately ripped
14 [fa41c138|e6fb0a36] (11+08/21) Accurately ripped
15 [199443db|2da76c4e] (11+08/19) Accurately ripped
Offsetted by -30:
01 [88daad94] (02/20) Accurately ripped
02 [a9b9bb9c] (02/21) Accurately ripped
03 [e49b0445] (02/21) Accurately ripped
04 [7016e93a] (02/21) Accurately ripped
05 [41dc1224] (02/20) Accurately ripped
06 [7d2c6443] (02/20) Accurately ripped
07 [cd6696f9] (02/21) Accurately ripped
08 [ab3b5b09] (02/21) Accurately ripped
09 [74fdb32c] (02/21) Accurately ripped
10 [079d8c65] (02/21) Accurately ripped
11 [8476551f] (02/21) Accurately ripped
12 [2f940bfa] (02/21) Accurately ripped
13 [612b6295] (02/21) Accurately ripped
14 [535ae6c1] (02/21) Accurately ripped
15 [1caf1b89] (00/19) No match (V2 was not tested)

Track Peak [ CRC32 ] [W/O NULL] [ LOG ]
– 99,9 [30812828] [98AD2B0D] CRC32
01 99,9 [47B9DDD6] [DE142D88]
02 99,9 [790B171C] [AB52E42A]
03 99,9 [86D421EB] [A8920B58]
04 99,9 [AC8DB69B] [F86FAD7D]
05 99,9 [61450042] [DC8DF364]
06 99,9 [E93BC421] [465854D7]
07 99,9 [F2CA4C2D] [72C6CDDA]
08 99,9 [78B24471] [24F9EE2D]
09 94,3 [C835090D] [E23A44E0]
10 99,9 [AE6DF6C4] [7B603B03]
11 99,9 [8AE7F07B] [4D0AB832]
12 99,9 [D44B866B] [B0762F46]
13 99,9 [E0AC2E94] [CC012FA3]
14 99,9 [24762622] [CE79B729]
15 99,9 [0B6D3CB4] [65A6D962]

Thin Lizzy - UK Tour 75 (2008)

All thanks go to alex1248

>>> Thin Lizzy in my Blog <<<

Download from icerbox.com: