Subcategories

The Beatles: Eight Days a Week - The Touring Years (2016)

Posted By: Tutorial
The Beatles: Eight Days a Week - The Touring Years (2016)

The Beatles: Eight Days a Week - The Touring Years (2016)
PDTV | 720 x 404 | .MKV/AVC @ 1220 Kbps | 1h 45mn | 1.26 GB
Audio: English AC-3 448 kbps, 6 channels | Subs: Italian
Genre: Documentary, Music

The Beatles: Eight Days A Week – The Touring Years is based on the first part of The Beatles’ career (1962-1966) – the period in which they toured and captured the world’s acclaim. Ron Howard’s film will explore how John Lennon, Paul McCartney, George Harrison and Ringo Starr came together to become this extraordinary phenomenon, “The Beatles.” It will explore their inner workings – how they made decisions, created their music and built their collective career together – all the while, exploring The Beatles’ extraordinary and unique musical gifts and their remarkable, complementary personalities. The film will focus on the time period from the early Beatles’ journey in the days of The Cavern Club in Liverpool to their last concert at Candlestick Park in San Francisco in 1966.
Director: Ron Howard
Writers: Mark Monroe, P.G. Morgan (story consultant)
Stars: Paul McCartney, Ringo Starr, John Lennon

More info: IMDB

also You can look my other last: Music-posts

General
Unique ID : 260405682576663177361116141484414332962 (0xC3E84F67B6C5887AF3D910CD01D7F022)
Complete name : The.Beatles.Eight.Days.a.Week.mkv
Format : Matroska
Format version : Version 2
File size : 1.26 GiB
Duration : 1 h 45 min
Overall bit rate : 1 702 kb/s
Movie name : www.icv-crew.org
Encoded date : UTC 2017-04-27 17:23:00 / UTC 2017-04-27 17:23:00
Writing application : Lavf54.63.100
Writing library : Lavf54.63.100
Copyright : robbyrs

Video
ID : 1
Format : AVC
Format/Info : Advanced Video Codec
Format profile : [email protected]
Format settings, CABAC : Yes
Format settings, ReFrames : 2 frames
Codec ID : V_MPEG4/ISO/AVC
Duration : 1 h 45 min
Bit rate : 1 220 kb/s
Nominal bit rate : 1 290 kb/s
Width : 720 pixels
Height : 404 pixels
Display aspect ratio : 16:9
Frame rate mode : Constant
Frame rate : 23.976 (24000/1001) FPS
Color space : YUV
Chroma subsampling : 4:2:0
Bit depth : 8 bits
Scan type : Progressive
Bits/(Pixel*Frame) : 0.175
Stream size : 924 MiB (72%)
Writing library : x264 core 130 r2273
Encoding settings : cabac=1 / ref=2 / deblock=1:0:0 / analyse=0x1:0x131 / me=hex / subme=7 / psy=1 / psy_rd=1.00:0.00 / mixed_ref=0 / me_range=16 / chroma_me=1 / trellis=1 / 8x8dct=0 / cqm=0 / deadzone=21,11 / fast_pskip=1 / chroma_qp_offset=-2 / threads=12 / lookahead_threads=2 / sliced_threads=0 / nr=0 / decimate=1 / interlaced=0 / bluray_compat=0 / constrained_intra=0 / bframes=3 / b_pyramid=0 / b_adapt=1 / b_bias=0 / direct=3 / weightb=1 / open_gop=0 / weightp=2 / keyint=230 / keyint_min=23 / scenecut=40 / intra_refresh=0 / rc_lookahead=40 / rc=abr / mbtree=1 / bitrate=1290 / ratetol=1.0 / qcomp=0.60 / qpmin=10 / qpmax=69 / qpstep=4 / vbv_maxrate=24000 / vbv_bufsize=24000 / nal_hrd=none / ip_ratio=1.40 / aq=1:1.00
Language : English
Default : Yes
Forced : No
Statistics Tags Issue : mkvmerge v8.7.0 ('All of the above') 64bit 2017-02-12 11:45:57 / Lavf54.63.100 2017-04-27 17:23:00 / UTC 2017-04-27 17:23:00
FromStats_BitRate : 8840798
FromStats_Duration : 01:45:52.763000000
FromStats_FrameCount : 152314
FromStats_StreamSize : 7020437450

Audio
ID : 2
Format : AC-3
Format/Info : Audio Coding 3
Format settings, Endianness : Big
Codec ID : A_AC3
Duration : 1 h 45 min
Bit rate mode : Constant
Bit rate : 448 kb/s
Channel(s) : 6 channels
Channel positions : Front: L C R, Side: L R, LFE
Sampling rate : 48.0 kHz
Frame rate : 31.250 FPS (1536 spf)
Bit depth : 16 bits
Compression mode : Lossy
Delay relative to video : -5 ms
Stream size : 339 MiB (26%)
Title : AC3 ENG
Language : English
Service kind : Complete Main
Default : No
Forced : No
Statistics Tags Issue : mkvmerge v8.7.0 ('All of the above') 64bit 2017-02-12 11:45:57 / Lavf54.63.100 2017-04-27 17:23:00 / UTC 2017-04-27 17:23:00
FromStats_BitRate : 640000
FromStats_Duration : 01:45:52.768000000
FromStats_FrameCount : 198524
FromStats_StreamSize : 508221440

Text
ID : 3
Format : ASS
Codec ID : S_TEXT/ASS
Codec ID/Info : Advanced Sub Station Alpha
Compression mode : Lossless
Title : FORCED
Language : Italian
Default : Yes
Forced : Yes
Statistics Tags Issue : v8.7.0 ('All of the above') 64bit 2017-02-12 11:45:57 / Lavf54.63.100 2017-04-27 17:23:00 / UTC 2017-04-27 17:23:00
FromStats_BitRate : 68
FromStats_Duration : 01:44:35.086000000
FromStats_FrameCount : 1268
FromStats_StreamSize : 54087

Menu
00:00:00.000 : :00:00:00.000
00:07:05.342 : :00:07:05.342
00:14:28.201 : :00:14:28.201
00:20:13.838 : :00:20:13.838
00:29:27.099 : :00:29:27.099
00:39:02.590 : :00:39:02.590
00:50:56.804 : :00:50:56.804
00:59:52.756 : :00:59:52.756
01:08:53.129 : :01:08:53.129
01:16:19.950 : :01:16:19.950
01:25:27.706 : :01:25:27.706
01:35:23.259 : :01:35:23.259
01:42:10.200 : :01:42:10:200
Screenshots

The Beatles: Eight Days a Week - The Touring Years (2016)

The Beatles: Eight Days a Week - The Touring Years (2016)

The Beatles: Eight Days a Week - The Touring Years (2016)

The Beatles: Eight Days a Week - The Touring Years (2016)

Welcome to my blog - daily update!

The Beatles: Eight Days a Week - The Touring Years (2016)